Gardeners' World 2022 S55E20 (1280x720p HD, 50fps, soft Eng subs)...

  • Category TV
  • Type HD
  • Language English
  • Total size 2.1 GB
  • Uploaded By ElsonRoa
  • Downloads 93
  • Last checked 1 day ago
  • Date uploaded 1 week ago
  • Seeders 22
  • Leechers 3

Infohash : 08B1124853E2A941FB34A410572CE5EC71317142


Gardeners' World 2022 S55E20 (1280x720p HD, 50fps, soft Eng subs)

Monty sows rocket, harvests chillies and tomatoes, and demonstrates how to take semi-ripe cuttings. / / Adam Frost shows how his new garden is shaping up, Frances Tophill meets a head gardener in south London where gardening sustainably in response to climate change is high on the agenda, and there's a self-confessed 'plantaholic' in her flower-filled garden in Kent. / / The celebration of the Queen's Green Canopy continues with a visit to a tree champion in Worcestershire who holds the national collection of gingko biloba, and more viewers share what they've been getting up to in their gardens.

First broadcast: 5 August 2022
Duration: 1 hour
Torrent dead? Request reseed at torrentgalaxy.org - or ask at elsonroa at tutanota.com

Media info:
General
Format : MPEG-4
Format profile : Base Media
Codec ID : isom (isom/iso2/avc1/mp41)
File size : 2.15 GiB
Duration : 59 min 0 s
Overall bit rate mode : Variable
Overall bit rate : 5 207 kb/s

Video
ID : 1
Format : AVC
Format/Info : Advanced Video Codec
Format profile : [email protected]
Format settings : CABAC / 4 Ref Frames
Format settings, CABAC : Yes
Format settings, Reference frames : 4 frames
Codec ID : avc1
Codec ID/Info : Advanced Video Coding
Duration : 59 min 0 s
Bit rate mode : Variable
Bit rate : 5 069 kb/s
Maximum bit rate : 7 605 kb/s
Width : 1 280 pixels
Height : 720 pixels
Display aspect ratio : 16:9
Frame rate mode : Variable
Frame rate : 50.000 FPS
Minimum frame rate : 25.000 FPS
Maximum frame rate : 90 000.000 FPS
Color space : YUV
Chroma subsampling : 4:2:0
Bit depth : 8 bits
Scan type : Progressive
Bits/(Pixel*Frame) : 0.110
Stream size : 2.09 GiB (97%)
Color range : Limited
Color primaries : BT.709
Transfer characteristics : BT.709
Matrix coefficients : BT.709
Codec configuration box : avcC

Audio
ID : 2
Format : AAC LC
Format/Info : Advanced Audio Codec Low Complexity
Codec ID : mp4a-40-2
Duration : 59 min 0 s
Bit rate mode : Variable
Bit rate : 128 kb/s
Maximum bit rate : 132 kb/s
Channel(s) : 2 channels
Channel layout : L R
Sampling rate : 48.0 kHz
Frame rate : 46.875 FPS (1024 SPF)
Compression mode : Lossy
Stream size : 54.0 MiB (2%)

Files:

Gardeners' World 2022 S55E20
  • About this torrent.txt (3.6 KB)
  • Downloaded from Demonoid - www.dnoid.is.txt (0.1 KB)
  • Gardeners' World 2022 S55E20.jpg (531.2 KB)
  • Gardeners' World 2022 S55E20.mp4 (2.1 GB)
  • Gardeners' World 2022 S55E20.srt (123.2 KB)
  • If this torrent is dead.txt (0.1 KB)
  • Torrent Downloaded From 1337x.app.txt (0.0 KB)

There are currently no comments. Feel free to leave one :)

Code:

  • udp://open.stealth.si:80/announce
  • udp://exodus.desync.com:6969/announce
  • udp://tracker.cyberia.is:6969/announce
  • udp://tracker.opentrackr.org:1337/announce
  • udp://tracker.torrent.eu.org:451/announce
  • udp://explodie.org:6969/announce
  • udp://tracker.birkenwald.de:6969/announce
  • udp://tracker.moeking.me:6969/announce
  • udp://ipv4.tracker.harry.lu:80/announce
  • udp://9.rarbg.me:2970/announce