777 Charlie (2022) DUAL (Hindi+Kannada) REPACK (1080p WEBRip x265...

  • Category Movies
  • Type Dubs/Dual Audio
  • Language Hindi
  • Total size 2.6 GB
  • Uploaded By Musafirboy
  • Downloads 14304
  • Last checked 4 days ago
  • Date uploaded 1 week ago
  • Seeders 482
  • Leechers 83

777 Charlie

AdventureComedyDrama

Dharma is stuck in a rut with his negative and lonely lifestyle and spends each day in the comfort of his loneliness. A pup named Charlie who is naughty and energetic which is a complete contrast with the Dharma’s character enters his life and gives him a new perspective towards it.

Infohash : AA95276905906415A88E98B493F67F910762B209





777 Charlie (2022) | DUAL | REPACK | Hindi+Kannada

📀1080p WEBRip | HEVC 10Bit | DD 5.1

🔊 Dubbed Audio: Hindi | Original Audio: Kannada

🔊









⭐Download Subtitle⭐


REPACK Reason: Audio Sync issue fixed
Hindi Audio is Cleaned CAM Audio, Synced by ARYA




Source Information


Code:

Release:
777.Charlie.(2022).HQ.1080p.VOOT.WEB.DL.H264.DD5.1.384k-DDH ~ 9.6GB


Media Information


Code:

General
Unique ID : 319816826649538401734661915219691898449 (0xF09A7AF602BAA404556972DD50810651)
Complete name : 777.Charlie.(2022).DUAL.REPACK.1080p.WEBRip.10bit.DD.5.1.HEVC-[Musafirboy].mkv
Format : Matroska
Format version : Version 4
File size : 2.60 GiB
Duration : 2 h 43 min
Overall bit rate : 2272 kb/s
Movie name : 777.Charlie.(2022).DUAL.REPACK.1080p.WEBRip.10bit.DD.5.1.HEVC-[Musafirboy]
Encoded date : UTC 2022-07-28 16:18:13
Writing application : [Musafirboy]
Cover : Yes
Attachments : cover.jpg

Video
Format : HEVC
Format/Info : High Efficiency Video Coding
Format profile : Main [email protected]@Main
Codec ID : V_MPEGH/ISO/HEVC
Duration : 2 h 43 min
Bit rate : 1694 kb/s
Width : 1920 pixels
Height : 800 pixels
Display aspect ratio : 2.40:1
Frame rate mode : Constant
Frame rate : 25.000 FPS
Color space : YUV
Chroma subsampling : 4:2:0
Bit depth : 10 bits
Bits/(Pixel*Frame) : 0.044
Stream size : 1.94 GiB (75%)
Title : [Musafirboy]
Default : Yes
Forced : No
Color range : Limited
Color primaries : BT.709
Transfer characteristics : BT.709
Matrix coefficients : BT.709

Audio #1
Format : AC-3
Format/Info : Audio Coding 3
Commercial name : Dolby Digital
Codec ID : A_AC3
Duration : 2 h 43 min
Bit rate mode : Constant
Bit rate : 192 kb/s
Channel(s) : 2 channels
Channel layout : L R
Sampling rate : 48.0 kHz
Frame rate : 31.250 FPS (1536 SPF)
Compression mode : Lossy
Stream size : 225 MiB (8%)
Title : Cleaned CAM Audio ~ ARYA
Language : Hindi
Service kind : Complete Main
Default : Yes
Forced : No

Audio #2
Format : AC-3
Format/Info : Audio Coding 3
Commercial name : Dolby Digital
Codec ID : A_AC3
Duration : 2 h 43 min
Bit rate mode : Constant
Bit rate : 384 kb/s
Channel(s) : 6 channels
Channel layout : L R C LFE Ls Rs
Sampling rate : 48.0 kHz
Frame rate : 31.250 FPS (1536 SPF)
Compression mode : Lossy
Delay relative to video : 8 ms
Stream size : 450 MiB (17%)
Title : VOOT DD 5.1
Language : Kannada
Service kind : Complete Main
Default : No
Forced : No








If you are financially able, please consider making a donation

bitcoin address: 3MHSQJWzztF6gv97qzqeoZSadPZ2GziMSX




Files:

777.Charlie.(2022).DUAL.REPACK.1080p.WEBRip.10bit.DD.5.1.HEVC-[Musafirboy]
  • 777.Charlie.(2022).DUAL.REPACK.1080p.WEBRip.10bit.DD.5.1.HEVC-[Musafirboy].mkv (2.6 GB)
  • Encoded by Musafirboy.txt (0.4 KB)
  • Musafirboy Official.url (0.0 KB)

Comments

Code:

  • udp://tracker.leechers-paradise.org:6969/announce
  • udp://tracker.coppersurfer.tk:6969/announce
  • udp://tracker.opentrackr.org:1337/announce
  • udp://p4p.arenabg.com:1337/announce
  • https://tracker.nanoha.org:443/announce
  • https://tracker.lilithraws.cf:443/announce
  • https://tracker.iriseden.fr:443/announce
  • https://t1.tokhmi.xyz:443/announce
  • http://vps02.net.orel.ru:80/announce
  • http://googer.cc:1337/announce
  • https://tracker.nitrix.me:443/announce
  • https://mytracker.fly.dev:443/announce
  • http://tracker.bt4g.com:2095/announce
  • http://fxtt.ru:80/announce