The Gray Man (2022) 720p 10bit NF WEBRip x265 HEVC [Org Hindi AAC...

  • Category Movies
  • Type Dubs/Dual Audio
  • Language Hindi
  • Total size 967.6 MB
  • Uploaded By emstone
  • Downloads 16763
  • Last checked 1 week ago
  • Date uploaded 2 weeks ago
  • Seeders 90
  • Leechers 98

The Gray Man

ActionThrillerAdventure

When the CIA's most skilled mercenary known as Court Gentry, aka Sierra Six, accidentally uncovers dark agency secrets, he becomes a primary target and is hunted around the world by psychopathic former colleague Lloyd Hansen and international assassins.

Infohash : 094F21009D193D9DE860051425C6862F68870B5D




The Gray Man (2022) 720p 10bit NF WEBRip x265 HEVC [Org Hindi AAC 5.1 ~192Kbps + English AAC 5.1] ESub ~ Immortal



Code:

 Video
ID                                       : 1
Format                                   : HEVC
Format/Info                              : High Efficiency Video Coding
Format profile                           : Main [email protected]@Main
Codec ID                                 : V_MPEGH/ISO/HEVC
Duration                                 : 2 h 9 min
Bit rate                                 : 664 kb/s
Width                                    : 1 280 pixels
Height                                   : 536 pixels
Display aspect ratio                     : 2.40:1
Frame rate mode                          : Constant
Frame rate                               : 24.000 FPS
Color space                              : YUV
Chroma subsampling                       : 4:2:0 (Type 0)
Bit depth                                : 10 bits
Bits/(Pixel*Frame)                       : 0.040
Stream size                              : 613 MiB (63%)
Title                                    : Encoded By ~ Immortal
Language                                 : English
Default                                  : Yes
Forced                                   : No
Color range                              : Limited
Color primaries                          : BT.709
Transfer characteristics                 : BT.709
Matrix coefficients                      : BT.709

Audio #1
ID                                       : 2
Format                                   : AAC LC SBR
Format/Info                              : Advanced Audio Codec Low Complexity with Spectral Band Replication
Commercial name                          : HE-AAC
Format settings                          : Explicit
Codec ID                                 : A_AAC-2
Duration                                 : 2 h 9 min
Bit rate                                 : 192 kb/s
Channel(s)                               : 6 channels
Channel layout                           : C L R Ls Rs LFE
Sampling rate                            : 48.0 kHz
Frame rate                               : 23.438 FPS (2048 SPF)
Compression mode                         : Lossy
Delay relative to video                  : -21 ms
Stream size                              : 177 MiB (18%)
Title                                    : Org NF Hindi HE-AAC 5.1 192Kbps ~ Immortal
Language                                 : Hindi
Default                                  : Yes
Forced                                   : Yes

Audio #2
ID                                       : 3
Format                                   : AAC LC
Format/Info                              : Advanced Audio Codec Low Complexity
Codec ID                                 : A_AAC-2
Duration                                 : 2 h 9 min
Bit rate                                 : 192 kb/s
Channel(s)                               : 6 channels
Channel layout                           : C L R Ls Rs LFE
Sampling rate                            : 48.0 kHz
Frame rate                               : 46.875 FPS (1024 SPF)
Compression mode                         : Lossy
Delay relative to video                  : -21 ms
Stream size                              : 174 MiB (18%)
Title                                    : English AAC 5.1 ~ Immortal
Language                                 : English
Default                                  : No
Forced                                   : No

Text
ID                                       : 4
Format                                   : ASS
Codec ID                                 : S_TEXT/ASS
Codec ID/Info                            : Advanced Sub Station Alpha
Duration                                 : 2 h 6 min
Bit rate                                 : 127 b/s
Frame rate                               : 0.239 FPS
Count of elements                        : 1813
Compression mode                         : Lossless
Stream size                              : 118 KiB (0%)
Title                                    : English
Language                                 : English
Default                                  : Yes
Forced                                   : Yes  























Quote:

🎞 Encoding Source :—  The.Gray.Man.2022.1080p.NF.WEB-DL.DDP5.1.Atmos.x264-ShiNobi.mkv [4.97 GB]  💝
🔉 Audio Credit :— The.Gray.Man.Hindi.192kbps.AAC5.1~Spidey.mka - 178.01 MB  💚



Files:

  • The Gray Man (2022) 720p 10bit NF WEBRip x265 HEVC [Org Hindi AAC 5.1 ~192Kbps + English AAC 5.1] ESub ~ Immortal.mkv (967.6 MB)

There are currently no comments. Feel free to leave one :)

Code:

  • udp://tracker.leechers-paradise.org:6969/announce
  • udp://tracker.coppersurfer.tk:6969/announce
  • udp://tracker.opentrackr.org:1337/announce
  • udp://p4p.arenabg.com:1337/announce
  • https://tracker.nanoha.org:443/announce
  • https://tracker.lilithraws.cf:443/announce
  • https://tracker.iriseden.fr:443/announce
  • https://t1.tokhmi.xyz:443/announce
  • http://vps02.net.orel.ru:80/announce
  • http://googer.cc:1337/announce
  • https://tracker.nitrix.me:443/announce
  • https://mytracker.fly.dev:443/announce
  • http://tracker.bt4g.com:2095/announce
  • http://fxtt.ru:80/announce