Better.Call.Saul.S06E09.1080p.WEB.H264-GLHF

  • Category TV
  • Type HD
  • Language English
  • Total size 4.7 GB
  • Uploaded By TheMorozko
  • Downloads 11444
  • Last checked 1 week ago
  • Date uploaded 3 weeks ago
  • Seeders 1276
  • Leechers 169

Infohash : 5621A65842102830CD64B2FEC0A18483CEE3B9BC


Screens... :




Better.Call.Saul.S06E09.1080p.WEB.H264-GLHF

Show: Better Call Saul
Title: Fun and Games
Season: 6
Episode: 9
Size: 4911M
Files: 11F
Date: 2022-07-19
Duration: 56 min 58 s

Source: Web
Encoding: H264
Bitrate: 11.9 Mb/s
Audio Format: E-AC-3 (Dolby Digital Plus)
Audio Rate: 640 kb/s @ 6 channels
Audio Lang: English
Sub count: 1
Subtitles: English

Infolink -> https://www.imdb.com/title/tt3032476/

Quote:

Mediainfo
Video
ID : 1
Format : AVC
Format/Info : Advanced Video Codec
Format profile : [email protected]
Format settings : CABAC / 4 Ref Frames
Format settings, CABAC : Yes
Format settings, Reference frames : 4 frames
Codec ID : V_MPEG4/ISO/AVC
Duration : 56 min 58 s
Bit rate : 11.0 Mb/s
Width : 1 920 pixels
Height : 1 080 pixels
Display aspect ratio : 16:9
Frame rate mode : Constant
Frame rate : 24.000 FPS
Color space : YUV
Chroma subsampling : 4:2:0
Bit depth : 8 bits
Scan type : Progressive
Bits/(Pixel*Frame) : 0.221
Stream size : 4.37 GiB (93%)
Default : Yes
Forced : No
Color range : Limited
Color primaries : BT.709
Transfer characteristics : BT.709
Matrix coefficients : BT.709

Audio
ID : 2
Format : E-AC-3
Format/Info : Enhanced AC-3
Commercial name : Dolby Digital Plus
Codec ID : A_EAC3
Duration : 56 min 58 s
Bit rate mode : Constant
Bit rate : 640 kb/s
Channel(s) : 6 channels
Channel layout : L R C LFE Ls Rs
Sampling rate : 48.0 kHz
Frame rate : 31.250 FPS (1536 SPF)
Compression mode : Lossy
Stream size : 261 MiB (5%)
Language : English
Service kind : Complete Main
Default : Yes
Forced : No

Text
ID : 3
Format : UTF-8
Codec ID : S_TEXT/UTF8
Codec ID/Info : UTF-8 Plain Text
Title : English [SDH]
Language : English
Default : No
Forced : No

Files:

Better.Call.Saul.S06E09.1080p.WEB.H264-GLHF[rarbg]
  • RARBG.txt (0.0 KB)
  • RARBG_DO_NOT_MIRROR.exe (0.1 KB)
  • better.call.saul.s06e09.1080p.web.h264-glhf.mkv (4.7 GB)
  • better.call.saul.s06e09.1080p.web.h264-glhf.nfo (0.4 KB)

Comments

Code:

  • http://tracker.trackerfix.com:80/announce
  • udp://9.rarbg.me:2960/announce
  • udp://9.rarbg.to:2820/announce
  • udp://tracker.fatkhoala.org:13730/announce
  • udp://tracker.slowcheetah.org:14730/announce