Janhit.Mein.Jaari.(2022).720p.ZEE5.WebRip.Hindi.AAC.2.0.H264-them...

  • Category Movies
  • Type Bollywood
  • Language Hindi
  • Total size 1.1 GB
  • Uploaded By tmb001
  • Downloads 28265
  • Last checked 2 weeks ago
  • Date uploaded 3 weeks ago
  • Seeders 262
  • Leechers 24

Janhit Mein Jaari

ComedyDramaRomance

The film encompasses the journey of a young girl who sells condoms for a living as she juggles working towards the betterment of women, telling people the importance of using protection while handling the resistance of her family and in-laws towards her job.

Infohash : 5BB28B5105F233B25291AAAFF7D8E1DA77DBD36A




Janhit.Mein.Jaari.(2022).720p.ZEE5.WebRip.Hindi.AAC.2.0.H264-themoviesboss



Media Info



Format : Matroska
Format version : Version 4
File size : 1.08 GiB
Duration : 2 h 21 min
Overall bit rate mode : Variable
Overall bit rate : 1 092 kb/s
Movie name : Encoded By themoviesboss
Encoded date : UTC 2022-07-14 20:15:35
Writing application : mkvmerge
Writing library : libebml v1.4.2 + libmatroska v1.6.4

Video
ID : 1
Format : AVC
Format/Info : Advanced Video Codec
Format profile : [email protected]
Format settings : CABAC / 4 Ref Frames
Format settings, CABAC : Yes
Format settings, Reference frames : 4 frames
Codec ID : V_MPEG4/ISO/AVC
Duration : 2 h 21 min
Bit rate mode : Variable
Bit rate : 1 026 kb/s
Maximum bit rate : 2 700 kb/s
Width : 1 280 pixels
Height : 720 pixels
Display aspect ratio : 16:9
Frame rate mode : Constant
Frame rate : 25.000 FPS
Color space : YUV
Chroma subsampling : 4:2:0
Bit depth : 8 bits
Scan type : Progressive
Bits/(Pixel*Frame) : 0.045
Stream size : 1.02 GiB (94%)
Title : themoviesboss
Language : English
Default : Yes
Forced : No
Color range : Limited
Color primaries : BT.709
Transfer characteristics : BT.709
Matrix coefficients : BT.709

Audio
ID : 2
Format : AAC LC
Format/Info : Advanced Audio Codec Low Complexity
Codec ID : A_AAC-2
Duration : 2 h 21 min
Bit rate : 64.0 kb/s
Channel(s) : 2 channels
Channel layout : L R
Sampling rate : 48.0 kHz
Frame rate : 46.875 FPS (1024 SPF)
Compression mode : Lossy
Stream size : 64.9 MiB (6%)
Title : themoviesboss
Language : Hindi
Default : No
Forced : No

Text
ID : 3
Format : UTF-8
Codec ID : S_TEXT/UTF8
Codec ID/Info : UTF-8 Plain Text
Duration : 2 h 18 min
Bit rate : 83 b/s
Frame rate : 0.356 FPS
Count of elements : 2950
Stream size : 84.2 KiB (0%)
Title : themoviesboss
Language : English
Default : Yes
Forced : No



Screenshots:











Please Seed Back After Downloaded


Files:

  • Janhit.Mein.Jaari.(2022).720p.ZEE5.WebRip.Hindi.AAC.2.0.H264-themoviesboss.mkv (1.1 GB)

There are currently no comments. Feel free to leave one :)

Code:

  • udp://tracker.tiny-vps.com:6969/announce
  • udp://fasttracker.foreverpirates.co:6969/announce
  • udp://tracker.opentrackr.org:1337/announce
  • udp://explodie.org:6969/announce
  • udp://open.stealth.si:80/announce
  • udp://tracker.cyberia.is:6969/announce
  • udp://ipv4.tracker.harry.lu:80/announce
  • udp://tracker.uw0.xyz:6969/announce
  • udp://tracker.dler.org:6969/announce
  • udp://9.rarbg.to:2710/announce
  • udp://open.free-tracker.ga:6969/announce
  • udp://vibe.sleepyinternetfun.xyz:1738/announce
  • udp://tracker.birkenwald.de:6969/announce
  • udp://open.dstud.io:6969/announce
  • udp://open.xxtor.com:3074/announce