Freaks 2018 Bonus BR EAC3 VFF ENG 1080p x265 10Bits T0M

  • Category Movies
  • Type HEVC/x265
  • Language French
  • Total size 3.7 GB
  • Uploaded By T0M4
  • Downloads 28
  • Last checked 22 minutes ago
  • Date uploaded 3 days ago
  • Seeders 4
  • Leechers 4

Freaks

Science FictionThrillerDrama

A bold girl discovers a bizarre, threatening, and mysterious new world beyond her front door after she escapes her father's protective and paranoid control.

Infohash : 44B7A68AD663160568A0C9C20D023F927B2ABE4B


______________________________________________________________________________________________________________
Freaks 2018
Bluray · 1080p x265 10bits · DD+ 5.1 VFF ENG
More Bonus
¯¯¯¯¯¯¯¯¯¯¯¯¯¯¯¯¯¯¯¯¯¯¯¯¯¯¯¯¯¯¯¯¯¯¯¯¯¯¯¯¯¯¯¯¯¯¯¯¯¯¯¯¯¯¯¯¯¯¯¯¯¯¯¯¯¯¯¯¯¯¯¯¯¯¯¯¯¯¯¯



Year : 2018
Country : United States
Original, French and English Title : Freaks
Director : Zach Lipovsky , Adam B. Stein
Music from : Tim Wynn
Actors : Emile Hirsch, Bruce Dern, Grace Park, Amanda Crew
Lexy Kolker, Aleks Paunovic, Michelle Harrison
Genre : Sci-Fi, Fantasy, Mystery, Drama
Certificate : Not recommended for children under 12 years old
Link : Allociné 3,8 /5 · IMDB 6,7 /10 · TMDB 66 % · SensCritique 6,8 /10 · Wiki · Bande Annonce

French Plot
Chloé a 7 ans et n’a jamais vu la lumière du jour. Son père la maintient à l’écart du monde extérieur , ne cessant de lui répéter qu’elle est différente, et que tout ce qui se trouve de l’autre côté de la porte d’entrée représente une menace. C’est en bravant tous les interdits que Chloé va pouvoir découvrir la vérité sur sa condition.

Bonus
Bluray Opening - 1 mn - 23,30 Mib - 1920x1080 HEVC 10Bits - MUSIQUE - 13c9f99c
Bluray Looping - 1 mn - 22,50 Mib - 1920x1080 HEVC 10Bits - MUSIQUE - 305bfe90
Making of - 20 mn - 151,0 Mib - 1920x1080 HEVC 10Bits - VOSTFR - 440f7b11
Teaser - 1 mn - 18,70 Mib - 1920x1080 HEVC 10Bits - VO - 1ece75ec
4 bonus, total 215,5 Mib 24 mn


If you enjoy and wish to support, please stay in seeding

Technical Details
¯¯¯¯¯¯¯¯¯¯¯¯¯¯¯¯¯¯¯¯¯¯¯¯¯¯¯¯¯¯¯¯¯¯¯¯¯¯¯¯¯¯¯¯¯¯¯¯¯¯¯¯¯¯¯¯¯¯¯¯¯¯¯¯¯¯¯¯¯¯¯¯¯¯¯¯¯¯¯¯¯¯¯¯¯¯¯¯¯¯¯¯¯¯¯¯¯¯¯¯
Media
Matroska 3,49 Gio 1 h45 mn 4753 Kbps, Total 3,70 Gio 2 h09 mn
Video
HEVC/H265 1920 x820 @23.976 [email protected]@Main 10 bits 3699 Kbps VerySlow qp23,37
Audio
True French 5.1 EAC3 448 Kbps 48KHz 16bits
English 5.1 EAC3 448 Kbps 48KHz 16bits
English Commentary by Adam Stein and Zach Lipovsky 2.0 EAC3 128 Kbps 48KHz 16bits
Subtitles
True French forced SRT
True French full SRT
True French forced PGS
True French full PGS
True French Commentary by Adam Stein and Zach Lipovsky PGS
Chapters
International
Screenshot

Origin
Bluray : AVC 1080p 34816 Kbps, VFF 5.1 DTS-HDMA 3706 Kbps, ENG 5.1 DTS-HDMA 3648 Kbps [UTT]

NFO
¯¯¯¯¯¯¯¯¯¯¯¯¯¯¯¯¯¯¯¯¯¯¯¯¯¯¯¯¯¯¯¯¯¯¯¯¯¯¯¯¯¯¯¯¯¯¯¯¯¯¯¯¯¯¯¯¯¯¯¯¯¯¯¯¯¯¯¯¯¯¯¯¯¯¯¯¯¯¯¯¯¯¯¯¯¯¯¯¯¯¯¯¯¯¯¯¯¯¯¯


General
Complete name : Freaks 2018 BR EAC3 VFF ENG 1080p x265 10Bits T0M.mkv
Format : Matroska
Format version : Version 4
File size : 3.49 GiB
Duration : 1 h 45 min
Overall bit rate : 4 753 kb/s
Movie name : Freaks 2018 de Zach Lipovsky, Adam B. Stein avec Emile Hirsch, Bruce Dern, Grace Park, Amanda Crew, Lexy Kolker, Aleks Paunovic, Michelle Harrison. -12 ans (allocine=267126,imdb=tt8781414) T0M
Encoded date : UTC 2020-06-18 12:30:40
Writing application : mkvmerge v47.0.0 ('Black Flag') 64-bit
Writing library : libebml v1.3.10 + libmatroska v1.5.2
Cover : Yes
Attachments : Cover.jpg / Box.jpg

Video
ID : 1
Format : HEVC
Format/Info : High Efficiency Video Coding
Format profile : Main [email protected]@Main
Codec ID : V_MPEGH/ISO/HEVC
Duration : 1 h 45 min
Bit rate : 3 699 kb/s
Width : 1 920 pixels
Height : 820 pixels
Display aspect ratio : 2.35:1
Frame rate mode : Constant
Frame rate : 23.976 (24000/1001) FPS
Color space : YUV
Chroma subsampling : 4:2:0
Bit depth : 10 bits
Bits/(Pixel*Frame) : 0.098
Stream size : 2.71 GiB (78%)
Title : Video HEVC 1920x820 (2,35:1) @23.976 x265 [email protected]@Main 10bits 3700kbps 2pass veryslow 3361mn qp23,37
Writing library : x265 3.2.1+1-b5c86a64bbbe:[Windows][GCC 9.2.0][64 bit] 10bit
Encoding settings : cpuid=1111039 / frame-threads=3 / numa-pools=8 / wpp / no-pmode / no-pme / no-psnr / no-ssim / log-level=2 / input-csp=1 / input-res=1920x820 / interlace=0 / total-frames=0 / level-idc=0 / high-tier=1 / uhd-bd=0 / ref=5 / no-allow-non-conformance / no-repeat-headers / annexb / no-aud / no-hrd / info / hash=0 / no-temporal-layers / open-gop / min-keyint=24 / keyint=240 / gop-lookahead=0 / bframes=8 / b-adapt=2 / b-pyramid / bframe-bias=0 / rc-lookahead=120 / lookahead-slices=0 / scenecut=40 / radl=0 / no-splice / no-intra-refresh / ctu=64 / min-cu-size=8 / rect / amp / max-tu-size=32 / tu-inter-depth=3 / tu-intra-depth=3 / limit-tu=0 / rdoq-level=2 / dynamic-rd=0.00 / no-ssim-rd / signhide / no-tskip / nr-intra=0 / nr-inter=0 / no-constrained-intra / strong-intra-smoothing / max-merge=5 / limit-refs=0 / no-limit-modes / me=3 / subme=4 / merange=57 / temporal-mvp / no-hme / weightp / weightb / no-analyze-src-pics / deblock=0:0 / sao / no-sao-non-deblock / rd=6 / selective-sao=4 / no-early-skip / rskip / no-fast-intra / no-tskip-fast / no-cu-lossless / b-intra / no-splitrd-skip / rdpenalty=0 / psy-rd=2.00 / psy-rdoq=1.00 / no-rd-refine / no-lossless / cbqpoffs=0 / crqpoffs=0 / rc=abr / bitrate=3700 / qcomp=0.60 / qpstep=4 / stats-write=0 / stats-Read=2 / cplxblur=20.0 / qblur=0.5 / ipratio=1.40 / pbratio=1.30 / aq-mode=2 / aq-strength=1.00 / cutree / zone-count=0 / no-strict-cbr / qg-size=32 / no-rc-grain / qpmax=69 / qpmin=0 / no-const-vbv / sar=1 / overscan=0 / videoformat=5 / range=0 / colorprim=1 / transfer=1 / colormatrix=1 / chromaloc=0 / display-window=0 / cll=0,0 / min-luma=0 / max-luma=1023 / log2-max-poc-lsb=8 / vui-timing-info / vui-hrd-info / slices=1 / no-opt-qp-pps / no-opt-ref-list-length-pps / no-multi-pass-opt-rps / scenecut-bias=0.05 / no-opt-cu-delta-qp / no-aq-motion / no-hdr / no-hdr-opt / no-dhdr10-opt / no-idr-recovery-sei / analysis-reuse-level=5 / scale-factor=0 / refine-intra=0 / refine-inter=0 / refine-mv=1 / refine-ctu-distortion=0 / no-limit-sao / ctu-info=0 / no-lowpass-dct / refine-analysis-type=0 / copy-pic=1 / max-ausize-factor=1.0 / no-dynamic-refine / no-single-sei / no-hevc-aq / no-svt / no-field / qp-adaptation-range=1.00
Default : Yes
Forced : No
Color range : Limited
Color primaries : BT.709
Transfer characteristics : BT.709
Matrix coefficients : BT.709

Audio #1
ID : 2
Format : E-AC-3
Format/Info : Enhanced AC-3
Commercial name : Dolby Digital Plus
Codec ID : A_EAC3
Duration : 1 h 45 min
Bit rate mode : Constant
Bit rate : 448 kb/s
Channel(s) : 6 channels
Channel layout : L R C LFE Ls Rs
Sampling rate : 48.0 kHz
Frame rate : 31.250 FPS (1536 SPF)
Compression mode : Lossy
Stream size : 337 MiB (9%)
Title : Français 5.1 EAC3 448kbps 48khz 16bits
Language : French
Service kind : Complete Main
Default : Yes
Forced : No

Audio #2
ID : 3
Format : E-AC-3
Format/Info : Enhanced AC-3
Commercial name : Dolby Digital Plus
Codec ID : A_EAC3
Duration : 1 h 45 min
Bit rate mode : Constant
Bit rate : 448 kb/s
Channel(s) : 6 channels
Channel layout : L R C LFE Ls Rs
Sampling rate : 48.0 kHz
Frame rate : 31.250 FPS (1536 SPF)
Compression mode : Lossy
Stream size : 337 MiB (9%)
Title : English 5.1 EAC3 448kbps 48khz 16bits
Language : English
Service kind : Complete Main
Default : No
Forced : No

Audio #3
ID : 4
Format : E-AC-3
Format/Info : Enhanced AC-3
Commercial name : Dolby Digital Plus
Codec ID : A_EAC3
Duration : 1 h 45 min
Bit rate mode : Constant
Bit rate : 128 kb/s
Channel(s) : 2 channels
Channel layout : L R
Sampling rate : 48.0 kHz
Frame rate : 31.250 FPS (1536 SPF)
Compression mode : Lossy
Stream size : 96.2 MiB (3%)
Title : English comment by Adam Stein and Zach Lipovsky 2.0 EAC3 128kbps 48khz 16bits
Language : English
Service kind : Complete Main
Default : No
Forced : No

Text #1
ID : 5
Format : UTF-8
Codec ID : S_TEXT/UTF8
Codec ID/Info : UTF-8 Plain Text
Duration : 1 h 45 min
Bit rate : 0 b/s
Count of elements : 10
Stream size : 686 Bytes (0%)
Title : Français forcé (Passages)
Language : French
Default : Yes
Forced : Yes

Text #2
ID : 6
Format : UTF-8
Codec ID : S_TEXT/UTF8
Codec ID/Info : UTF-8 Plain Text
Duration : 1 h 45 min
Bit rate : 40 b/s
Count of elements : 1252
Stream size : 31.0 KiB (0%)
Title : Français complet (Tous le film)
Language : French
Default : No
Forced : No

Text #3
ID : 7
Format : PGS
Muxing mode : zlib
Codec ID : S_HDMV/PGS
Codec ID/Info : Picture based subtitle format used on BDs/HD-DVDs
Duration : 41 min 53 s
Bit rate : 355 b/s
Count of elements : 16
Stream size : 109 KiB (0%)
Title : Français forcé (Passages) PGS
Language : French
Default : No
Forced : Yes

Text #4
ID : 8
Format : PGS
Muxing mode : zlib
Codec ID : S_HDMV/PGS
Codec ID/Info : Picture based subtitle format used on BDs/HD-DVDs
Duration : 1 h 43 min
Bit rate : 20.3 kb/s
Count of elements : 2504
Stream size : 15.0 MiB (0%)
Title : Français complet (Tous le film) PGS
Language : French
Default : No
Forced : No

Text #5
ID : 9
Format : PGS
Muxing mode : zlib
Codec ID : S_HDMV/PGS
Codec ID/Info : Picture based subtitle format used on BDs/HD-DVDs
Duration : 1 h 44 min
Bit rate : 55.2 kb/s
Count of elements : 3837
Stream size : 41.4 MiB (1%)
Title : Français commentaire de Adam Stein et Zach Lipovsky PGS
Language : French
Default : No
Forced : No

Menu
00:00:00.000 : :01 - 00:00:00
00:08:30.927 : :02 - 00:08:30
00:19:00.597 : :03 - 00:19:00
00:27:53.672 : :04 - 00:27:53
00:36:34.817 : :05 - 00:36:34
00:46:04.386 : :06 - 00:46:04
00:53:08.018 : :07 - 00:53:08
01:01:56.796 : :08 - 01:01:56
01:09:53.564 : :09 - 01:09:53
01:18:14.690 : :10 - 01:18:14
01:27:54.060 : :11 - 01:27:54
01:36:49.887 : :12 - 01:36:49
01:41:10.765 : :13 - 01:41:10

Files:

Freaks 2018 Bonus BR EAC3 VFF ENG 1080p x265 10Bits T0M
  • Freaks 2018 Bonus - Bluray Looping MUSIQUE.mkv (22.5 MB)
  • Freaks 2018 Bonus - Bluray Opening MUSIQUE.mkv (23.3 MB)
  • Freaks 2018 Bonus - Making of VOSTFR.mkv (150.9 MB)
  • Freaks 2018 Bonus - Teaser VO.mkv (18.7 MB)
  • Freaks 2018 BR EAC3 VFF ENG 1080p x265 10Bits T0M.mkv (3.5 GB)
  • Freaks 2018.m3u (0.5 KB)
  • Freaks 2018.nfo (43.5 KB)
  • Freaks 2018.sfv (0.3 KB)

There are currently no comments. Feel free to leave one :)

Code:

  • udp://tracker.opentrackr.org:1337/announce
  • http://tracker.opentrackr.org:1337/announce
  • http://tracker3.itzmx.com:8080/announce
  • udp://tracker.cyberia.is:6969/announce
  • udp://tracker.tiny-vps.com:6969/announce
  • udp://glotorrents.pw:6969/announce
  • udp://opentor.org:2710
  • udp://tracker.ds.is:6969/announce
  • udp://tracker.internetwarriors.net:1337
  • udp://tracker.internetwarriors.net:1337/announce
  • udp://tracker.leechers-paradise.org:6969
  • udp://p4p.arenabg.com:1337/announce
  • udp://tracker.open-internet.nl:6969/announce
  • udp://ipv4.tracker.harry.lu:80/announce
  • udp://tracker.moeking.me:6969/announce